Computer Tutorials | Infotech | Software | Games | Ebook | Tips & Trick Blogger

PC build and repair DVDRip 815MB


This is 2 hours video (tutorial) which gives you very useful information about the change in computer components and the changing in technology; how to build and repair your computer almost without needing any help.

Features:
File size : 815 MiB
Duration : 2h 5mn
Overall bit rate : 905 Kbps

Video:
Format : AVC
Codec ID : avc1
Duration : 2h 5mn
Bit rate : 768 Kbps
Width : 480 pixels
Height : 320 pixels
Display aspect ratio : 1.500
Frame rate : 25.000 fps
Resolution : 24 bits
Colorimetry : 4:2:0
Scan type : Progressive
Bits/(Pixel*Frame) : 0.200
Stream size : 689 MiB (84%)

Audio:
Format : MPEG Audio
Format profile : Layer 3
Codec ID/Hint : MP3
Duration : 2h 5mn
Bit rate mode : Constant
Bit rate : 128 Kbps
Channel(s) : 2 channels
Sampling rate : 44.1 KHz
Resolution : 16 bits
Stream size : 115 MiB (14%)



Download:


Other link :

Share on...

0 comment on PC build and repair DVDRip 815MB :

Post a Comment and Don't Spam!